LinuxQuestions.org
Download your favorite Linux distribution at LQ ISO.
Go Back   LinuxQuestions.org > Forums > Linux Forums > Linux - Software
User Name
Password
Linux - Software This forum is for Software issues.
Having a problem installing a new program? Want to know which application is best for the job? Post your question in this forum.

Notices


Reply
  Search this Thread
Old 08-05-2008, 11:40 AM   #1
trillobyte
Member
 
Registered: Apr 2007
Location: USA
Distribution: Slackware, FreeBSD, Trisquel
Posts: 105
Blog Entries: 1

Rep: Reputation: 33
dvd-menu/spumux error


I'm in the process of creating a dvd from the dvd-slideshow program. I changed the audio bitrates adding the k's that the FFmpeg version SVN-r10652 required in the dvd-slideshow script. That worked out well and I was able to create the slideshow that I needed. In the process of creating the dvd, when using dvd-menu, it spit out an ERROR during spumux execution! I was wondering if this error is also related to FFmpeg as well and if it is, is it the dvd-menu script or the spumux script that needs to be changed? I'm getting a bit confused.


Code:
[dvd-menu] Tue Aug  5 12:08:28 EDT 2008
[dvd-menu] dvd-menu version 0.8.0
[dvd-menu] Linux darkstar 2.6.24.5-smp #1 SMP Wed Apr 30 13:18:13 CDT 2008 i686 AMD Athlon(tm) 64 X2 Dual Core Processor 5000+ AuthenticAMD GNU/Linux
[dvd-menu] Output directory=/storage
[dvd-menu] Final dvd filesystem is in /storage/dvd_fs
[dvd-menu] Video: NTSC 720x480 29.97 
[dvd-menu] Audio: AC3 128 48000
[dvd-menu] buttons=2
[dvd-menu] Found mjpegtools version 1.9.0
[dvd-menu] mjpegtools is >= 1.6.3-rc1
[dvd-menu] title_font=/usr/share/fonts/Type1/n019004l.pfb
[dvd-menu] button_font=/usr/share/fonts/Type1/n019004l.pfb
[dvd-menu] ###################################
[dvd-menu] Creating menu
FFmpeg version SVN-r10652, Copyright (c) 2000-2007 Fabrice Bellard, et al.
  configuration: --prefix=/usr --mandir=/usr/man --disable-debug --enable-shared --disable-static --enable-pthreads --enable-libogg --enable-libtheora --enable-libvorbis --enable-gpl --enable-pp --enable-swscaler --enable-x11grab --enable-libmp3lame --enable-libfaac --enable-libfaad --enable-libxvid --enable-liba52 --enable-libx264
  libavutil version: 49.5.0
  libavcodec version: 51.44.0
  libavformat version: 51.14.0
  built on May 19 2008 01:10:16, gcc: 4.2.3
Input #0, wav, from '/storage/dvd-menu_temp_20032/audio.wav':
  Duration: 00:00:01.0, bitrate: 1536 kb/s
  Stream #0.0: Audio: pcm_s16le, 48000 Hz, stereo, 1536 kb/s
Output #0, ac3, to '/storage/dvd-menu_temp_20032/audio.ac3':
  Stream #0.0: Audio: ac3, 48000 Hz, 5:1, 0 kb/s
Stream mapping:
  Stream #0.0 -> #0.0
Error while opening codec for output stream #0.0 - maybe incorrect parameters such as bit_rate, rate, width or height
[dvd-menu] mplexing the files.............
[dvd-menu] ###############################################
[dvd-menu] spumuxing the files.............
[dvd-menu] ERROR during spumux execution!
[dvd-menu] see /storage/dvd-menu.log for details
 
Old 08-05-2008, 12:14 PM   #2
David the H.
Bash Guru
 
Registered: Jun 2004
Location: Osaka, Japan
Distribution: Debian + kde 4 / 5
Posts: 6,837

Rep: Reputation: 1984Reputation: 1984Reputation: 1984Reputation: 1984Reputation: 1984Reputation: 1984Reputation: 1984Reputation: 1984Reputation: 1984Reputation: 1984Reputation: 1984
Your audio stream is showing 0kb, so something is breaking ffmpeg's audio processing. There was someone else here recently who was also having trouble with ac3 streams in dvd-slideshow, so I'm thinking there's probably a bug in it somewhere.
 
Old 08-05-2008, 06:48 PM   #3
trillobyte
Member
 
Registered: Apr 2007
Location: USA
Distribution: Slackware, FreeBSD, Trisquel
Posts: 105
Blog Entries: 1

Original Poster
Rep: Reputation: 33
Thanks for the reply. I was able to get it running by adding the -mp2 switch to both dvd-slideshow and dvd-menu. Don't know why FFmpeg is having trouble with ac3 streams?
 
  


Reply


Thread Tools Search this Thread
Search this Thread:

Advanced Search

Posting Rules
You may not post new threads
You may not post replies
You may not post attachments
You may not edit your posts

BB code is On
Smilies are On
[IMG] code is Off
HTML code is Off



Similar Threads
Thread Thread Starter Forum Replies Last Post
which DVD player can play DVD from hard drive *and* support DVD Menu ? tho_x_tran Linux - Software 16 11-16-2006 02:00 PM
Trying to add DVD subtitles with spumux davidjmcc86 Linux - Desktop 3 11-10-2006 01:18 AM
spumux DoctorWack Linux - Software 2 09-30-2005 09:53 AM
Creating DVD menus with Spumux + Dvdauthor Inexactitude Linux - Software 6 02-21-2005 08:01 PM
spumux dvdauthor error Johng Linux - Software 2 02-16-2005 06:49 AM

LinuxQuestions.org > Forums > Linux Forums > Linux - Software

All times are GMT -5. The time now is 08:44 PM.

Main Menu
Advertisement
My LQ
Write for LQ
LinuxQuestions.org is looking for people interested in writing Editorials, Articles, Reviews, and more. If you'd like to contribute content, let us know.
Main Menu
Syndicate
RSS1  Latest Threads
RSS1  LQ News
Twitter: @linuxquestions
Facebook: linuxquestions Google+: linuxquestions
Open Source Consulting | Domain Registration