LinuxQuestions.org
Latest LQ Deal: Latest LQ Deals
Go Back   LinuxQuestions.org > Forums > Linux Forums > Linux - Software
User Name
Password
Linux - Software This forum is for Software issues.
Having a problem installing a new program? Want to know which application is best for the job? Post your question in this forum.

Notices


Reply
  Search this Thread
Old 11-06-2004, 03:43 PM   #1
deleriamour
LQ Newbie
 
Registered: Nov 2004
Distribution: slack 10.0.0
Posts: 1

Rep: Reputation: 0
Unhappy cdparanoia won't rip without -Y


Hello everyone,

I am having problems getting cdparanoia to rip a cd without invoking the -Y switch.

This is my drive (dmesg):
hdb: Samsung CD-RW/DVD-ROM SN-308B, ATAPI CD/DVD-ROM drive
....
hdb: attached ide-scsi driver.
scsi0 : SCSI host adapter emulation for IDE ATAPI devices
Vendor: SAMSUNG Model: CDRW/DVD SN-308B Rev: U005
Type: CD-ROM ANSI SCSI revision: 02
Attached scsi CD-ROM sr0 at scsi0, channel 0, id 0, lun 0
sr0: scsi3-mmc drive: 24x/24x writer cd/rw xa/form2 cdda tray
Uniform CD-ROM driver Revision: 3.12


------------------------------------------------------
/dev/cdrom -----> /dev/sr0

Terminal Output:
bash-2.05b# cdparanoia -vB 1-
cdparanoia III release 9.8 (March 23, 2001)
(C) 2001 Monty <monty@xiph.org> and Xiphophorus

...

Checking /dev/cdrom for cdrom...
Testing /dev/cdrom for cooked ioctl() interface
/dev/sr0 is not a cooked ioctl CDROM.
Testing /dev/cdrom for SCSI interface
generic device: /dev/sg0
ioctl device: /dev/sr0

Found an accessible SCSI CDROM drive.
Looking at revision of the SG interface in use...
SG interface version 3.1.25; OK.

CDROM model sensed sensed: SAMSUNG CDRW/DVD SN-308B U005


Checking for SCSI emulation...
Drive is ATAPI (using SCSI host adaptor emulation)

Checking for MMC style command set...
Drive is MMC style
DMA scatter/gather table entries: 256
table entry size: 32768 bytes
maximum theoretical transfer: 3566 sectors
Setting default read size to 13 sectors (30576 bytes).

Verifying CDDA command set...
Expected command set reads OK.

Table of contents (audio tracks only):
track length begin copy pre ch
===========================================================
1. 30860 [06:51.35] 32 [00:00.32] no no 2
2. 11498 [02:33.23] 30892 [06:51.67] no no 2
3. 15040 [03:20.40] 42390 [09:25.15] no no 2
4. 15100 [03:21.25] 57430 [12:45.55] no no 2
5. 23785 [05:17.10] 72530 [16:07.05] no no 2
6. 15815 [03:30.65] 96315 [21:24.15] no no 2
7. 19222 [04:16.22] 112130 [24:55.05] no no 2
8. 21663 [04:48.63] 131352 [29:11.27] no no 2
9. 30295 [06:43.70] 153015 [34:00.15] no no 2
TOTAL 183278 [40:43.53] (audio only)

Ripping from sector 32 (track 1 [0:00.00])
to sector 183309 (track 9 [6:43.69])

outputting to track01.cdda.wav

(== PROGRESS == [> | ...... 00 ] == :-P 0 ==)


At this point, the drive and cdparanoia will each stay busy, but no progress is ever made. The smiley indicator stays at :-P and will occassionally change to ;-(.

Interestingly, if I disable some of the checking with the -Y switch the cd will rip fine and produce a decent quality wav. I would though, for obvious reasons, like to be able to use all of the checking functions.

I've gone through to troubleshooting section on xiph.org to no avail.

Any ideas?

Thanks in advance,
deleriamour.
 
  


Reply


Thread Tools Search this Thread
Search this Thread:

Advanced Search

Posting Rules
You may not post new threads
You may not post replies
You may not post attachments
You may not edit your posts

BB code is On
Smilies are On
[IMG] code is Off
HTML code is Off



Similar Threads
Thread Thread Starter Forum Replies Last Post
ripping with cdparanoia edM Slackware 3 11-10-2005 09:03 PM
Cdparanoia problem Obscure Linux - Software 2 04-14-2004 11:14 AM
cdparanoia help eduac Linux - Hardware 5 10-30-2003 05:59 AM
Can't rip DVDs with dvd::rip Hammett Linux - Software 2 10-27-2003 08:35 AM
cdparanoia: how to log? zokik Linux - Software 3 04-25-2003 09:12 AM

LinuxQuestions.org > Forums > Linux Forums > Linux - Software

All times are GMT -5. The time now is 10:06 AM.

Main Menu
Advertisement
My LQ
Write for LQ
LinuxQuestions.org is looking for people interested in writing Editorials, Articles, Reviews, and more. If you'd like to contribute content, let us know.
Main Menu
Syndicate
RSS1  Latest Threads
RSS1  LQ News
Twitter: @linuxquestions
Open Source Consulting | Domain Registration