LinuxQuestions.org
Review your favorite Linux distribution.
Go Back   LinuxQuestions.org > Forums > Linux Forums > Linux - Newbie
User Name
Password
Linux - Newbie This Linux forum is for members that are new to Linux.
Just starting out and have a question? If it is not in the man pages or the how-to's this is the place!

Notices

Reply
 
LinkBack Search this Thread
Old 05-12-2011, 11:26 PM   #1
sumeet inani
Member
 
Registered: Oct 2008
Posts: 869
Blog Entries: 26

Rep: Reputation: 47
wmv3 file won't play in mplayer or ffplay


Code:
ffmpeg -i 4x24.wmv
FFmpeg version git-1dbd813, Copyright (c) 2000-2010 the FFmpeg developers
  built on Oct  1 2010 19:28:12 with gcc 4.4.3
  configuration: '--enable-avfilter' '--enable-avfilter-lavf' '--enable-vdpau' '--enable-bzlib' '--enable-libgsm' '--enable-libschroedinger' '--enable-libspeex' '--enable-libtheora' '--enable-libvorbis' '--enable-pthreads' '--enable-zlib' '--disable-stripping' '--enable-runtime-cpudetect' '--enable-gpl' '--enable-postproc' '--enable-swscale' '--enable-x11grab' '--enable-libdc1394' '--disable-static' '--enable-libopencore-amrnb' '--enable-libopencore-amrwb' '--enable-version3' '--enable-libfaac' '--enable-nonfree' '--enable-libmp3lame' '--enable-libx264' '--enable-gpl' '--enable-libxvid' '--enable-static'
  libavutil     50.23. 0 / 50.23. 0
  libavcore      0. 1. 0 /  0. 1. 0
  libavcodec    52.84. 1 / 52.84. 1
  libavformat   52.77. 0 / 52.77. 0
  libavdevice   52. 2. 0 / 52. 2. 0
  libavfilter    1.26. 1 /  1.26. 1
  libswscale     0.11. 0 /  0.11. 0
  libpostproc   51. 2. 0 / 51. 2. 0
[asf @ 0xa235470] Ext DRM protected stream detected, decoding will likely fail!
[asf @ 0xa235470] DRM protected stream detected, decoding will likely fail!
[asf @ 0xa235470] Digital signature detected, decoding will likely fail!

Seems stream 1 codec frame rate differs from container frame rate: 1000.00 (1000/1) -> 30.08 (361/12)
Input #0, asf, from '/data/to send/4x24.wmv':
  Metadata:
    Application     : Windows Movie Maker 2.1.4026.0
    WM/ParentalRating: 
    WMFSDKVersion   : 9.00.00.4504
    WMFSDKNeeded    : 0.0.0.0000
    IsVBR           : 0
    title           : 
    author          : 
    copyright       : 
    comment         : 
  Duration: 00:00:04.99, start: 5.000000, bitrate: 559966 kb/s
    Stream #0.0(eng): Audio: wmav2, 32000 Hz, 2 channels, s16, 32 kb/s
    Stream #0.1(eng): Video: wmv3, yuv420p, 320x240, 304 kb/s, 30.08 tbr, 1k tbn, 1k tbc
At least one output file must be specified
file 4x24.wmv
4x24.wmv: Microsoft ASF
PLAY errors
Code:
bt_audio_service_open: connect() failed: Connection refused (111)
bt_audio_service_open: connect() failed: Connection refused (111)
bt_audio_service_open: connect() failed: Connection refused (111)
bt_audio_service_open: connect() failed: Connection refused (111)
bt_audio_service_open: connect() failed: Connection refused (111)
bt_audio_service_open: connect() failed: Connection refused (111)
bt_audio_service_open: connect() failed: Connection refused (111)
bt_audio_service_open: connect() failed: Connection refused (111)
bt_audio_service_open: connect() failed: Connection refused (111)
bt_audio_service_open: connect() failed: Connection refused (111)
bt_audio_service_open: connect() failed: Connection refused (111)
bt_audio_service_open: connect() failed: Connection refused (111)
MPlayer SVN-r1.0~rc3+svn20090426-4.4.3 (C) 2000-2009 MPlayer Team
mplayer: could not connect to socket
mplayer: No such file or directory
Failed to open LIRC support. You will not be able to use your remote control.

Playing /data/to send/4x24.wmv.
ASF file format detected.
DRM License URL: http://www.microsoft.com/isapi/redir.dll?prd=wmdrm&pver=2&os=win&sbp=newclient
This file has been encumbered with DRM encryption, it will not play in MPlayer!
[asfheader] Audio stream found, -aid 1
[asfheader] Video stream found, -vid 2
VIDEO:  [WMV3]  320x240  24bpp  1000.000 fps    0.0 kbps ( 0.0 kbyte/s)
Clip info:
 name: 
 author: 
 copyright: 
 comments: 
open: No such file or directory
[MGA] Couldn't open: /dev/mga_vid
open: No such file or directory
[MGA] Couldn't open: /dev/mga_vid
[VO_TDFXFB] Can't open /dev/fb0: Permission denied.
[VO_3DFX] Unable to open /dev/3dfx.
==========================================================================
Opening video decoder: [dmo] DMO video codecs
DMO dll supports VO Optimizations 0 1
DMO dll might use previous sample when requested
Decoder supports the following formats: YV12 YUY2 UYVY YVYU RGB8 RGB555 RGB565 RGB24 RGB32 
Decoder is capable of YUV output (flags 0x1b)
VDec: vo config request - 320 x 240 (preferred colorspace: Packed YUY2)
VDec: using Planar YV12 as output csp (no 0)
Movie-Aspect is undefined - no prescaling applied.
VO: [xv] 320x240 => 320x240 Planar YV12 
Selected video codec: [wmv9dmo] vfm: dmo (Windows Media Video 9 DMO)
==========================================================================
==========================================================================
Opening audio decoder: [ffmpeg] FFmpeg/libavcodec audio decoders
overflow in spectral RLE, ignoring
AUDIO: 32000 Hz, 2 ch, s16le, 32.0 kbit/3.12% (ratio: 4000->128000)
Selected audio codec: [ffwmav2] afm: ffmpeg (DivX audio v2 (FFmpeg))
==========================================================================
AO: [pulse] 32000Hz 2ch s16le (2 bytes per sample)
Starting playback...
ProcessInputError  r:0x80004005=-2147467259 (keyframe: 1)
ProcessInputError  r:0x80004005=-2147467259 (keyframe: 1)??,?% 0 0 
ProcessInputError  r:0x80004005=-2147467259 (keyframe: 1)??,?% 0 0 
ProcessInputError  r:0x80004005=-2147467259 (keyframe: 1)??,?% 0 0 
ProcessInputError  r:0x80004005=-2147467259 (keyframe: 1)??,?% 0 0 
A:   9.5 V:   5.1 A-V:  4.411 ct:  0.017   5/  5 ??% ??% ??,?% 0 0 

Exiting... (End of file)
Code:
ffplay 4x24.wmv
FFplay version git-1dbd813, Copyright (c) 2003-2010 the FFmpeg developers
  built on Oct  1 2010 19:28:12 with gcc 4.4.3
  configuration: '--enable-avfilter' '--enable-avfilter-lavf' '--enable-vdpau' '--enable-bzlib' '--enable-libgsm' '--enable-libschroedinger' '--enable-libspeex' '--enable-libtheora' '--enable-libvorbis' '--enable-pthreads' '--enable-zlib' '--disable-stripping' '--enable-runtime-cpudetect' '--enable-gpl' '--enable-postproc' '--enable-swscale' '--enable-x11grab' '--enable-libdc1394' '--disable-static' '--enable-libopencore-amrnb' '--enable-libopencore-amrwb' '--enable-version3' '--enable-libfaac' '--enable-nonfree' '--enable-libmp3lame' '--enable-libx264' '--enable-gpl' '--enable-libxvid' '--enable-static'
  libavutil     50.23. 0 / 50.23. 0
  libavcore      0. 1. 0 /  0. 1. 0
  libavcodec    52.84. 1 / 52.84. 1
  libavformat   52.77. 0 / 52.77. 0
  libavdevice   52. 2. 0 / 52. 2. 0
  libavfilter    1.26. 1 /  1.26. 1
  libswscale     0.11. 0 /  0.11. 0
  libpostproc   51. 2. 0 / 51. 2. 0
[asf @ 0x8fcc000] Ext DRM protected stream detected, decoding will likely fail!
[asf @ 0x8fcc000] DRM protected stream detected, decoding will likely fail!
[asf @ 0x8fcc000] Digital signature detected, decoding will likely fail!
Input #0, asf, from '/data/to send/4x24.wmv':
  Metadata:
    Application     : Windows Movie Maker 2.1.4026.0
    WM/ParentalRating: 
    WMFSDKVersion   : 9.00.00.4504
    WMFSDKNeeded    : 0.0.0.0000
    IsVBR           : 0
    title           : 
    author          : 
    copyright       : 
    comment         : 
  Duration: 00:00:04.99, start: 5.000000, bitrate: 559966 kb/s
    Stream #0.0(eng): Audio: wmav2, 32000 Hz, 2 channels, s16, 32 kb/s
    Stream #0.1(eng): Video: wmv3, yuv420p, 320x240, 304 kb/s, 30.08 tbr, 1k tbn, 1k tbc
[wmav2 @ 0x8fd4e00] overflow in spectral RLE, ignoring
    Last message repeated 1 times
[wmav2 @ 0x8fd4e00] frame_len overflow
[wmav2 @ 0x8fd4e00] overflow in spectral RLE, ignoring
    Last message repeated 1 times
[wmav2 @ 0x8fd4e00] frame_len overflow
    Last message repeated 1 times
[wmav2 @ 0x8fd4e00] overflow in spectral RLE, ignoring
[wmav2 @ 0x8fd4e00] frame_len overflow
[wmav2 @ 0x8fd4e00] overflow in spectral RLE, ignoring
[wmav2 @ 0x8fd4e00] frame_len overflow
    Last message repeated 1 times
[wmav2 @ 0x8fd4e00] overflow in spectral RLE, ignoring
    Last message repeated 2 times
[wmav2 @ 0x8fd4e00] frame_len overflow
[wmav2 @ 0x8fd4e00] overflow in spectral RLE, ignoring
    Last message repeated 3 times
[wmav2 @ 0x8fd4e00] frame_len overflow
    Last message repeated 1 times
[wmav2 @ 0x8fd4e00] overflow in spectral RLE, ignoring
[wmav2 @ 0x8fd4e00] frame_len overflow
    Last message repeated 1 times
[wmav2 @ 0x8fd4e00] overflow in spectral RLE, ignoring
[wmv3 @ 0x8fcd190] warning: first frame is no keyframeB sq=    0B f=0/0   
[wmv3 @ 0x8fcd190] Bits overconsumption: 4273 > 4248 at 16x11
[wmv3 @ 0x8fcd190] concealing 63 DC, 63 AC, 63 MV errors
[wmv3 @ 0x8fcd190] Bits overconsumption: 485 > 352  0KB sq=    0B f=0/0   
[wmv3 @ 0x8fcd190] concealing 297 DC, 297 AC, 297 MV errors
[wmv3 @ 0x8fcd190] Bits overconsumption: 1225 > 1208 at 19x1
[wmv3 @ 0x8fcd190] concealing 260 DC, 260 AC, 260 MV errors
[wmv3 @ 0x8fcd190] Bits overconsumption: 235 > 160
[wmv3 @ 0x8fcd190] concealing 297 DC, 297 AC, 297 MV errors
[wmv3 @ 0x8fcd190] Bits overconsumption: 208 > 64 at 0x0
[wmv3 @ 0x8fcd190] concealing 299 DC, 299 AC, 299 MV errors
[wmav2 @ 0x8fd4e00] overflow in spectral RLE, ignoring 0B f=0/0   
    Last message repeated 1 times
[wmav2 @ 0x8fd4e00] frame_len overflow
[wmav2 @ 0x8fd4e00] overflow in spectral RLE, ignoring
[wmav2 @ 0x8fd4e00] frame_len overflow
    Last message repeated 1 times
[wmav2 @ 0x8fd4e00] overflow in spectral RLE, ignoring
    Last message repeated 1 times
[wmav2 @ 0x8fd4e00] frame_len overflow
[wmav2 @ 0x8fd4e00] overflow in spectral RLE, ignoring
    Last message repeated 1 times
[wmav2 @ 0x8fd4e00] frame_len overflow
[wmav2 @ 0x8fd4e00] overflow in spectral RLE, ignoring
    Last message repeated 4 times
[wmav2 @ 0x8fd4e00] frame_len overflow
[wmav2 @ 0x8fd4e00] overflow in spectral RLE, ignoring
[wmav2 @ 0x8fd4e00] frame_len overflow
[wmav2 @ 0x8fd4e00] overflow in spectral RLE, ignoring
[wmav2 @ 0x8fd4e00] frame_len overflow
    Last message repeated 1 times
[wmav2 @ 0x8fd4e00] overflow in spectral RLE, ignoring
    Last message repeated 2 times
[wmav2 @ 0x8fd4e00] frame_len overflow
[wmav2 @ 0x8fd4e00] overflow in spectral RLE, ignoring
    Last message repeated 2 times
[wmav2 @ 0x8fd4e00] frame_len overflow
[wmav2 @ 0x8fd4e00] overflow in spectral RLE, ignoring
[wmav2 @ 0x8fd4e00] frame_len overflow
[wmav2 @ 0x8fd4e00] overflow in spectral RLE, ignoring
    Last message repeated 1 times
[wmav2 @ 0x8fd4e00] frame_len overflow
   9.93 A-V:  0.779 s:0.2 aq=    0KB vq=    0KB sq=    0B f=0/0   
here there is black filled window with green squares spots & no audio
 
Old 05-12-2011, 11:29 PM   #2
sumeet inani
Member
 
Registered: Oct 2008
Posts: 869
Blog Entries: 26

Original Poster
Rep: Reputation: 47
I will try suggestions at http://www.linuxquestions.org/questi...player-683631/
 
Old 05-16-2011, 06:31 AM   #3
sumeet inani
Member
 
Registered: Oct 2008
Posts: 869
Blog Entries: 26

Original Poster
Rep: Reputation: 47
I got freeme2 as well as drmdbg but cannot get SID key freeme2 asks for. Is it not embedded in video like KID key ?
 
  


Reply


Thread Tools Search this Thread
Search this Thread:

Advanced Search

Posting Rules
You may not post new threads
You may not post replies
You may not post attachments
You may not edit your posts

BB code is On
Smilies are On
[IMG] code is Off
HTML code is Off
Trackbacks are Off
Pingbacks are On
Refbacks are Off


Similar Threads
Thread Thread Starter Forum Replies Last Post
mplayer can't play a video file though ffplay does albeit with aberrations sumeet inani Linux - Newbie 7 11-24-2010 10:46 PM
Playing WMV3 files in mplayer? garnser Linux - Software 4 05-22-2006 05:57 PM
mplayer won't play in english blackdragonblood Linux - Software 2 06-24-2005 09:32 PM
How to play encrypted WMV3 video file. rmanocha Linux - Software 4 01-05-2005 01:44 PM
MPlayer Won't Play DVDs AFI_Flame Linux - Software 2 10-05-2004 04:42 PM


All times are GMT -5. The time now is 03:44 AM.

Main Menu
My LQ
Write for LQ
LinuxQuestions.org is looking for people interested in writing Editorials, Articles, Reviews, and more. If you'd like to contribute content, let us know.
Main Menu
Syndicate
RSS1  Latest Threads
RSS1  LQ News
Twitter: @linuxquestions
identi.ca: @linuxquestions
Facebook: linuxquestions Google+: linuxquestions
Open Source Consulting | Domain Registration