LinuxQuestions.org

LinuxQuestions.org (/questions/)
-   Linux - Software (http://www.linuxquestions.org/questions/linux-software-2/)
-   -   How can I convert video files into mp4 (http://www.linuxquestions.org/questions/linux-software-2/how-can-i-convert-video-files-into-mp4-421287/)

Basel 03-03-2006 11:17 AM

How can I convert video files into mp4
 
Hello,

Could someone please help me converting some wmv files into mp4 format. I tried some ffmpeg and mencoder commands that I found in this forum but they gave me some errors.

Code:

basel@linux:~/temp/gsv> ffmpeg -i gensosuikosiden_web.wmv -f psp -r 14.985 -s 320x240 -b 768 -ar 24000 -ab 32 M4V00001.MP4
FFmpeg version CVS, Copyright (c) 2000-2004 Fabrice Bellard
  configuration:
  libavutil version: 49.0.0
  libavcodec version: 51.7.0
  libavformat version: 50.3.0
  built on Mar  3 2006 16:55:50, gcc: 4.0.2 20050901 (prerelease) (SUSE Linux)

Seems that stream 1 comes from film source: 1000.00 (1000/1) -> 30.00 (30/1)
Input #0, asf, from 'gensosuikosiden_web.wmv':
  Duration: 00:09:37.9, start: 5.000000, bitrate: 344 kb/s
  Stream #0.0: Audio: wmav2, 44100 Hz, stereo, 48 kb/s
  Stream #0.1, 30.00 fps(r): Video: wmv2, yuv420p, 320x240
Output #0, psp, to 'M4V00001.MP4':
  Stream #0.0, 14.99 fps(c): Video: mpeg4, yuv420p, 320x240, q=2-31, 768 kb/s
  Stream #0.1: Audio: 0x0000, 24000 Hz, stereo, 32 kb/s
Stream mapping:
  Stream #0.1 -> #0.0
  Stream #0.0 -> #0.1
[mpeg4 @ 0x80bc90]removing common factors from framerate
Unsupported codec for output stream #0.1


marozsas 03-03-2006 12:13 PM

Hi,

A friend of mine told me he uses transcode for this kind of job.

I hope this can help you,

stearic 03-11-2006 06:40 AM

You might try this command, i found it on some random site. I have personally tried it and i know it works. I think the problem your having is with the frame rate. it has to be just right to work with the psp.
ffmpeg -i Video.avi -f psp -r 29.970030 -b 768 -ar 24000 -ab 64 -s 320x240 M4V00001.MP4


All times are GMT -5. The time now is 05:20 AM.