LinuxQuestions.org
Download your favorite Linux distribution at LQ ISO.
Go Back   LinuxQuestions.org > Forums > Linux Forums > Linux - Software
User Name
Password
Linux - Software This forum is for Software issues.
Having a problem installing a new program? Want to know which application is best for the job? Post your question in this forum.

Notices

Reply
 
Search this Thread
Old 08-04-2009, 09:19 AM   #1
ChrisKane
LQ Newbie
 
Registered: Aug 2009
Posts: 1

Rep: Reputation: 0
Red face FFMPEG & MENCODER Problem lets any streaming client crash(Firefox/Opera/Safari)


Dear Community,

i am running an ubuntu machine with apache webserver(both latest versions) and a youtube like video script.FFMPEG, MENCODER and FLVTOOL2 are installed with the latest codecs. Uploading and converting videos leads to the following error in the apache.log but generates a flv video :

Cannot find HOME directory.
get_path("config") problem
No file given


FFmpeg version 0.5-svn17737+3:0.svn20090303-1ubuntu6, Copyright (c) 2000-2009 Fabrice Bellard, et al.
configuration: --enable-gpl --enable-postproc --enable-swscale --enable-x11grab --extra-version=svn17737+3:0.svn20090303-1ubuntu6 --prefix=/usr --enable-avfilter --enable-avfilter-lavf --enable-libgsm --enable-libschroedinger --enable-libspeex --enable-libtheora --enable-libvorbis --enable-pthreads --disable-stripping --disable-vhook --enable-libdc1394 --disable-armv5te --disable-armv6 --disable-armv6t2 --disable-armvfp --disable-neon --disable-altivec --disable-vis --enable-shared --disable-static
libavutil 49.15. 0 / 49.15. 0
libavcodec 52.20. 0 / 52.20. 0
libavformat 52.31. 0 / 52.31. 0
libavdevice 52. 1. 0 / 52. 1. 0
libavfilter 0. 4. 0 / 0. 4. 0
libswscale 0. 7. 1 / 0. 7. 1
libpostproc 51. 2. 0 / 51. 2. 0
built on Apr 10 2009 23:18:41, gcc: 4.3.3
[wmv3 @ 0x99e1e90]Extra data: 8 bits left, value: 0


Trying to open the website that shows the video lets any browser crash

  1. Seems stream 0 codec frame rate differs from container frame rate: 1000.00 (1000/1) -> 25.00 (25/1)
  2. Input #0, flv, from '/var/www/vdata/21.flv':
  3. Duration: 00:05:20.12, start: 0.000000, bitrate: 568 kb/s
  4. Stream #0.0: Video: flv, yuv420p, 630x500, 568 kb/s, 25 tbr, 1k tbn, 1k tbc
  5. Stream #0.1: Audio: adpcm_swf, 44100 Hz, stereo, s16
  6. Output #0, image2, to '/var/www/uploads/temp/21/19-0000000%d.jpg':
  7. Stream #0.0: Video: mjpeg, yuvj420p, 630x500, q=2-31, 200 kb/s, 90k tbn, 2 tbc
  8. Stream mapping:
  9. Stream #0.0 -> #0.0
  10. Press [q] to stop encoding
  11. frame= 0 fps= 0 q=0.0 size= -0kB time=10000000000.00 bitrate= -0.0kbits/s
  12. frame= 0 fps= 0 q=0.0 size= -0kB time=10000000000.00 bitrate= -0.0kbits/s
  13. frame= 0 fps= 0 q=0.0 size= -0kB time=10000000000.00 bitrate= -0.0kbits/s
  14. frame= 0 fps= 0 q=0.0 size= -0kB time=10000000000.00 bitrate= -0.0kbits/s
  15. frame= 0 fps= 0 q=0.0 size= -0kB time=10000000000.00 bitrate= -0.0kbits/s
  16. frame= 0 fps= 0 q=0.0 size= -0kB time=10000000000.00 bitrate= -0.0kbits/s
  17. frame= 0 fps= 0 q=0.0 size= -0kB time=10000000000.00 bitrate= -0.0kbits/s
  18. frame= 0 fps= 0 q=0.0 size= -0kB time=10000000000.00 bitrate= -0.0kbits/s
  19. frame= 0 fps= 0 q=0.0 size= -0kB time=10000000000.00 bitrate= -0.0kbits/s
  20. frame= 1 fps= 0 q=4.3 Lsize= -0kB time=0.50 bitrate= -0.4kbits/s
  21. video:21kB audio:0kB global headers:0kB muxing overhead -100.104305%



Who can help ? I am near to desperation...
 
  


Reply


Thread Tools Search this Thread
Search this Thread:

Advanced Search

Posting Rules
You may not post new threads
You may not post replies
You may not post attachments
You may not edit your posts

BB code is On
Smilies are On
[IMG] code is Off
HTML code is Off


Similar Threads
Thread Thread Starter Forum Replies Last Post
Installing FFMPEG & MENCODER completely with all codecs and tools jjrjr1 Linux - Software 2 05-16-2009 08:03 PM
LXer: How to make Firefox look and feel like IE, Safari, or Opera LXer Syndicated Linux News 0 11-27-2007 07:20 AM
LXer: Browser Smackdown: Firefox vs. IE vs. Opera vs. Safari LXer Syndicated Linux News 0 12-07-2006 01:03 AM
opera 8.52 and 8.54 crash-and firefox 1.0.4 problem kpachopoulos Debian 2 05-13-2006 05:31 AM


All times are GMT -5. The time now is 01:32 AM.

Main Menu
My LQ
Write for LQ
LinuxQuestions.org is looking for people interested in writing Editorials, Articles, Reviews, and more. If you'd like to contribute content, let us know.
Main Menu
Syndicate
RSS1  Latest Threads
RSS1  LQ News
Twitter: @linuxquestions
identi.ca: @linuxquestions
Facebook: linuxquestions Google+: linuxquestions
Open Source Consulting | Domain Registration