Support LQ: Use code LQ3 and save $3 on Domain Registration
Go Back > Forums > Linux Forums > Linux - Software
User Name
Linux - Software This forum is for Software issues.
Having a problem installing a new program? Want to know which application is best for the job? Post your question in this forum.


  Search this Thread
Old 07-25-2005, 10:05 PM   #1
Registered: Sep 2004
Posts: 234

Rep: Reputation: 30

To whom it may concern,

I am having trouble with ffmpeg. I am trying to convert an avi file to mpeg4 format for the psp. I have installed ffmpeg onto Fedora Core 3 and the command I use does not seem to work. Here is the command and the result. What should I do? Can you give me the commands step by step please?bash-3.00$ ffmpeg -i cowboy-bebop_01.avi -f psp -r 14.985 -s 320x240 -b 768 -ar 24000 -ab 32 M4V00001.MP4
[wmv3 @ 0x48f330]Header: 8EF81A01
[wmv3 @ 0x48f330]Profile 2 is reserved
[wmv3 @ 0x48f330]0 for reserved RES_FASTTX is forbidden
[wmv3 @ 0x48f330]Profile 2:
frmrtq_postproc=7, bitrtq_postproc=15
LoopFilter=1, MultiRes=0, FastUVMV=0, Extended MV=0
Rangered=0, VSTransform=1, Overlap=1, SyncMarker=0
DQuant=1, Quantizer mode=0, Max B frames=0
Input #0, avi, from 'cowboy-bebop_01.avi':
Duration: 00:24:38.1, start: 0.000000, bitrate: 1152 kb/s
Stream #0.0: Video: wmv3, yuv420p, 640x480, 23.98 fps
Stream #0.1: Audio: mp3, 48000 Hz, stereo, 112 kb/s
No audio or video streams available

It looks like the RES_FASTTX thing (whatever that is) is the


Thread Tools Search this Thread
Search this Thread:

Advanced Search

Posting Rules
You may not post new threads
You may not post replies
You may not post attachments
You may not edit your posts

BB code is On
Smilies are On
[IMG] code is Off
HTML code is Off

Similar Threads
Thread Thread Starter Forum Replies Last Post
Problem with ffmpeg.. BDiddy Linux - Software 0 10-18-2005 03:38 PM
ffmpeg RySk8er30 Linux - Software 3 06-25-2005 11:10 AM
ffmpeg vs mplayer Lobais Linux - Software 1 01-12-2005 12:47 PM
frontend for ffmpeg? brunob Linux - Software 1 12-01-2004 01:54 AM
ffmpeg loop bendeco13 Linux - General 1 11-07-2004 10:53 PM

All times are GMT -5. The time now is 07:15 PM.

Main Menu
Write for LQ is looking for people interested in writing Editorials, Articles, Reviews, and more. If you'd like to contribute content, let us know.
Main Menu
RSS1  Latest Threads
RSS1  LQ News
Twitter: @linuxquestions
Facebook: linuxquestions Google+: linuxquestions
Open Source Consulting | Domain Registration