LinuxQuestions.org
Visit Jeremy's Blog.
Go Back   LinuxQuestions.org > Forums > Linux Forums > Linux - Software
User Name
Password
Linux - Software This forum is for Software issues.
Having a problem installing a new program? Want to know which application is best for the job? Post your question in this forum.

Notices


Reply
  Search this Thread
Old 11-08-2003, 12:10 PM   #1
wr3ck3d
Member
 
Registered: Dec 2002
Location: IL
Distribution: NetBSD, Slackware, Gentoo, Debian, FreeBSD
Posts: 444

Rep: Reputation: 31
cdrdao question or two


Ok, with cdrdao just have a few questions. Opened the gnome fronted to cdrdao (gcdmaster) added 4 tracks.

track 1 00:00-05:17
track 2 05:17-09:55
track 3 05:17-12:42
track 4 12:42-18:07

Now my question is on the "Add index mark" and what it does. I put the cursor right on the start of song two and added a index mark. Then dragged it backwards to 04:11. Then added one at the start of song 3 and didnt touch it. For song for added one at the start then pulled it back to 12:22. I know these are pointless things to do, but just trying to see what they do. Here is the toc it created for this.

Code:
CD_DA
 
 
// Track 1
TRACK AUDIO
NO COPY
NO PRE_EMPHASIS
TWO_CHANNEL_AUDIO
FILE "/home/brian/jrab/track01.cdda.wav" 0 05:17:45
INDEX 04:11:72
 
 
// Track 2
TRACK AUDIO
NO COPY
NO PRE_EMPHASIS
TWO_CHANNEL_AUDIO
FILE "/home/brian/jrab/track02.cdda.wav" 0 04:37:64
INDEX 04:37:44
 
 
// Track 3
TRACK AUDIO
NO COPY
NO PRE_EMPHASIS
TWO_CHANNEL_AUDIO
FILE "/home/brian/jrab/track03.cdda.wav" 0 02:26:66
 
 
// Track 4
TRACK AUDIO
NO COPY
NO PRE_EMPHASIS
TWO_CHANNEL_AUDIO
FILE "/home/brian/jrab/track03.cdda.wav" 02:26:66 00:19:72
FILE "/home/brian/jrab/track04.cdda.wav" 0 05:26:29
START 00:19:72
Can somebody that is good wtih cdrdao just give a quick explanation of this?

thanks
 
  


Reply


Thread Tools Search this Thread
Search this Thread:

Advanced Search

Posting Rules
You may not post new threads
You may not post replies
You may not post attachments
You may not edit your posts

BB code is On
Smilies are On
[IMG] code is Off
HTML code is Off



Similar Threads
Thread Thread Starter Forum Replies Last Post
Question about cdrdao umk Linux - Newbie 7 03-24-2005 05:30 PM
another ATAPI with cdrdao question DB9 Linux - Hardware 6 04-07-2004 03:19 PM
CDRDAO configuration question Viper Linux - Software 12 06-21-2003 12:46 PM
cdrdao vexer Linux - Software 1 05-15-2003 12:49 AM
cdrdao twk Linux - Software 2 05-19-2002 06:37 PM


All times are GMT -5. The time now is 10:29 AM.

Main Menu
Advertisement
My LQ
Write for LQ
LinuxQuestions.org is looking for people interested in writing Editorials, Articles, Reviews, and more. If you'd like to contribute content, let us know.
Main Menu
Syndicate
RSS1  Latest Threads
RSS1  LQ News
Twitter: @linuxquestions
Facebook: linuxquestions Google+: linuxquestions
Open Source Consulting | Domain Registration