LinuxQuestions.org
Share your knowledge at the LQ Wiki.
Go Back   LinuxQuestions.org > Forums > Linux Forums > Linux - Newbie
User Name
Password
Linux - Newbie This Linux forum is for members that are new to Linux.
Just starting out and have a question? If it is not in the man pages or the how-to's this is the place!

Notices


Reply
  Search this Thread
Old 02-16-2013, 12:16 PM   #1
Nabeel
Member
 
Registered: Nov 2009
Location: Pakistan
Distribution: Ubuntu
Posts: 294

Rep: Reputation: 17
Problem with MMC under Lubuuntu


I was converting a couple of flv videos and every thing was going fine till yesterday suddenly MMC doesn't convert a single video??? Even the ones I converted before aren't converting at all. This is what I get upon cliking more
Code:
>> Command executed:
ffmpeg -y -i "/home/nabeel/Downloads/The Big Bang Theory Season 5 Episode 16 The Vacation Solution.flv"  -vf scale=352:288 -f 3gp -vcodec h263 -r 15 -b 200k -acodec libvo_aacenc -ac 2 -ar 32000 -ab 64k "/home/nabeel/Downloads/The Big Bang Theory Season 5 Episode 16 The Vacation Solution.3gp"

>> Result: 
ffmpeg version 0.8.5-4:0.8.5-0ubuntu0.12.04.1, Copyright (c) 2000-2012 the Libav developers
  built on Jan 24 2013 18:03:14 with gcc 4.6.3
*** THIS PROGRAM IS DEPRECATED ***
This program is only provided for compatibility and will be removed in a future release. Please use avconv instead.
[flv @ 0x986a240] Estimating duration from bitrate, this may be inaccurate

Seems stream 0 codec frame rate differs from container frame rate: 47.95 (2997003/62500) -> 23.98 (24000/1001)
Input #0, flv, from '/home/nabeel/Downloads/The Big Bang Theory Season 5 Episode 16 The Vacation Solution.flv':
  Metadata:
    hasKeyframes    : true
    lastkeyframetimestamp: 1301
    datasize        : 52987952
    metadatacreator : inlet media FLVTool2 v1.0.6 - http://www.inlet-media.de/flvtool2
    hasCuePoints    : false
    lasttimestamp   : 1305
    videosize       : 39215064
    canSeekToEnd    : false
    audiodelay      : 0
    hasMetadata     : true
    hasAudio        : true
    hasVideo        : true
    audiosize       : 13765664
  Duration: 00:21:44.55, start: 0.042000, bitrate: 326 kb/s
    Stream #0.0: Video: h264 (High), yuv420p, 624x352 [PAR 1:1 DAR 39:22], 244 kb/s, 23.98 tbr, 1k tbn, 47.95 tbc
    Stream #0.1: Audio: aac, 44100 Hz, stereo, s16, 82 kb/s
[buffer @ 0x986e300] w:624 h:352 pixfmt:yuv420p
[scale @ 0x98697a0] w:624 h:352 fmt:yuv420p -> w:352 h:288 fmt:yuv420p flags:0x4
[h263 @ 0x986ef40] Invalid pixel aspect ratio 351/242, limit is 255/255
Output #0, 3gp, to '/home/nabeel/Downloads/The Big Bang Theory Season 5 Episode 16 The Vacation Solution.3gp':
    Stream #0.0: Video: h263, yuv420p, 352x288 [PAR 351:242 DAR 39:22], q=2-31, 200 kb/s, 90k tbn, 15 tbc
    Stream #0.1: Audio: libfaac, 32000 Hz, stereo, s16, 200 kb/s
Stream mapping:
  Stream #0.0 -> #0.0
  Stream #0.1 -> #0.1
Error while opening encoder for output stream #0.0 - maybe incorrect parameters such as bit_rate, rate, width or height
----------------------------
Note : This only happens with conversion to .3gp format

Last edited by Nabeel; 02-16-2013 at 12:22 PM.
 
Old 02-17-2013, 06:25 AM   #2
qlue
Member
 
Registered: Aug 2009
Location: Umzinto, South Africa
Distribution: Crunchbangified Debian 8 (Jessie)
Posts: 747
Blog Entries: 1

Rep: Reputation: 172Reputation: 172
MMC uses FFmpeg which is no longer being used in Ubuntu. You might be able to build it from source and use it that way though! See this thread http://ubuntuforums.org/showthread.php?t=1995559
 
  


Reply


Thread Tools Search this Thread
Search this Thread:

Advanced Search

Posting Rules
You may not post new threads
You may not post replies
You may not post attachments
You may not edit your posts

BB code is On
Smilies are On
[IMG] code is Off
HTML code is Off



Similar Threads
Thread Thread Starter Forum Replies Last Post
Ricoh Sd/mmc Card Reader Won't Read Mmc Cards it-s Linux - Hardware 4 07-02-2011 06:49 AM
Problem to start MMc-agent deco5003 Linux - Server 2 03-25-2010 01:13 AM
What is the relationship between the linux mmc media driver and mmc host driver? archieval Linux - General 0 07-13-2009 01:36 AM
MMC-reader problem inx Linux - Hardware 7 01-13-2005 02:42 PM
Accessing MMC card in Laptop built-in MMC Card Slot with knoppix bröggle Linux - Laptop and Netbook 0 08-18-2004 09:44 AM


All times are GMT -5. The time now is 08:31 PM.

Main Menu
Advertisement
My LQ
Write for LQ
LinuxQuestions.org is looking for people interested in writing Editorials, Articles, Reviews, and more. If you'd like to contribute content, let us know.
Main Menu
Syndicate
RSS1  Latest Threads
RSS1  LQ News
Twitter: @linuxquestions
Facebook: linuxquestions Google+: linuxquestions
Open Source Consulting | Domain Registration