LinuxQuestions.org
Visit Jeremy's Blog.
Go Back   LinuxQuestions.org > Forums > Linux Forums > Linux - Desktop
User Name
Password
Linux - Desktop This forum is for the discussion of all Linux Software used in a desktop context.

Notices

Reply
 
Search this Thread
Old 09-21-2006, 07:46 PM   #1
trscookie
Member
 
Registered: Apr 2004
Location: oxford
Distribution: gentoo
Posts: 440

Rep: Reputation: 30
another ripperX problem


hello all,

Ive just emerged ripperx, but when i run it i get "error code 14 make sure an audio disk is in the drive and that you are either runningt ripperX as root, are a member of the cdrom group......blar blar blar"

however it doesnt matter if i run it as root or not i still get the same error message, then i have checked dmesg:

Code:
Code:
BLACKBETTY cookie # dmesg | grep drive$
hda: Maxtor 6Y120L0, ATA DISK drive
hdc: PHILIPS DVDR1648P1, ATAPI CD/DVD-ROM drive
hdd: HL-DT-ST GCE-8523B, ATAPI CD/DVD-ROM drive

Code:
Code:
BLACKBETTY cookie # ls -l /dev/cdrom
lrwxrwxrwx 1 root root 3 2006-09-22 16:37 /dev/cdrom -> hdc

and
Code:
Code:
BLACKBETTY cookie # cdparanoia /dev/cdrom
cdparanoia III release 9.8 (March 23, 2001)
(C) 2001 Monty <monty@xiph.org> and Xiphophorus

Report bugs to paranoia@xiph.org
http://www.xiph.org/paranoia/

Checking /dev/cdrom for cdrom...
        DMA scatter/gather table entries: 1
        table entry size: 131072 bytes
        maximum theoretical transfer: 55 sectors
        Setting default read size to 24 sectors (56448 bytes).


CDROM model sensed sensed: PHILIPS DVDR1648P1 P2.2


Checking for SCSI emulation...
        Drive is ATAPI (using SCSI host adaptor emulation)

Checking for MMC style command set...
        Drive is MMC style
Verifying CDDA command set...
        Expected command set reads OK.

Table of contents (audio tracks only):
track        length               begin        copy pre ch
===========================================================
  1.    18147 [04:01.72]        0 [00:00.00]    no   no  2
  2.    18205 [04:02.55]    18147 [04:01.72]    OK   no  2
  3.    24943 [05:32.43]    36352 [08:04.52]    OK   no  2
  4.    20712 [04:36.12]    61295 [13:37.20]    OK   no  2
  5.    33325 [07:24.25]    82007 [18:13.32]    OK   no  2
  6.    33643 [07:28.43]   115332 [25:37.57]    OK   no  2
  7.    22810 [05:04.10]   148975 [33:06.25]    OK   no  2
  8.    23432 [05:12.32]   171785 [38:10.35]    OK   no  2
  9.    28813 [06:24.13]   195217 [43:22.67]    OK   no  2
 10.    24195 [05:22.45]   224030 [49:47.05]    OK   no  2
 11.    24157 [05:22.07]   248225 [55:09.50]    OK   no  2
 12.    26185 [05:49.10]   272382 [60:31.57]    OK   no  2
 13.    21518 [04:46.68]   298567 [66:20.67]    no   no  2
TOTAL  320085 [71:07.60]    (audio only)

Error parsing span argument

any ideas?? please help
 
Old 09-25-2006, 04:05 AM   #2
bulliver
Senior Member
 
Registered: Nov 2002
Location: Edmonton AB, Canada
Distribution: Gentoo x86_64; Gentoo PPC; FreeBSD; OS X 10.9.4
Posts: 3,760
Blog Entries: 4

Rep: Reputation: 77
Have you gone through the ripperX 'setup' screen and made sure it is looking at either /dev/cdrom or /dev/hdc?
 
Old 09-25-2006, 04:58 AM   #3
trscookie
Member
 
Registered: Apr 2004
Location: oxford
Distribution: gentoo
Posts: 440

Original Poster
Rep: Reputation: 30
Everything seems to be setup correctly in the configureation pannel's
i have this in my extra options:

Code:
 -d /dev/cdrom
 
Old 09-25-2006, 05:32 AM   #4
bulliver
Senior Member
 
Registered: Nov 2002
Location: Edmonton AB, Canada
Distribution: Gentoo x86_64; Gentoo PPC; FreeBSD; OS X 10.9.4
Posts: 3,760
Blog Entries: 4

Rep: Reputation: 77
Well, sorry man, I don't know what to tell you. Honestly, I gave up on ripperX a while ago because it was acting flaky. It would add extra chars to the fetched cddb info and whatnot.

Perhaps put the disk in /dev/hdd just for giggles.

Perhaps you will have better luck with Grip or KAudioCreator...
 
  


Reply


Thread Tools Search this Thread
Search this Thread:

Advanced Search

Posting Rules
You may not post new threads
You may not post replies
You may not post attachments
You may not edit your posts

BB code is On
Smilies are On
[IMG] code is Off
HTML code is Off


Similar Threads
Thread Thread Starter Forum Replies Last Post
ripperX denies me access to CD Drive d00bid00b Linux - Software 10 04-30-2006 04:34 PM
Problems with ripperx encoding walterbyrd Linux - Software 1 03-09-2005 04:04 PM
Grip or RipperX as root Pipedream Linux - Newbie 9 12-25-2004 04:25 PM
ripperX problem doralsoral Linux - Software 1 12-07-2004 11:01 AM
ripperX perms doralsoral Linux - Software 5 05-02-2004 12:22 PM


All times are GMT -5. The time now is 05:52 AM.

Main Menu
Advertisement
My LQ
Write for LQ
LinuxQuestions.org is looking for people interested in writing Editorials, Articles, Reviews, and more. If you'd like to contribute content, let us know.
Main Menu
Syndicate
RSS1  Latest Threads
RSS1  LQ News
Twitter: @linuxquestions
identi.ca: @linuxquestions
Facebook: linuxquestions Google+: linuxquestions
Open Source Consulting | Domain Registration